Przypominamy że użytkowanie forum jest równoznaczne z akceptacją zasad regulaminu oraz wyrażeniem zgody na używanie plików Cookies.
Odpowiedz na ten temat
Pokaż wyniki od 1 do 2 z 2, 951 odsłon

BluRay, HD DVD, DVD, HDTV, mHD, 720p, 720i, 1080p, 1080i

Temat: Zabójczy numer/Lucky Number Slevin (2006)

Tagi tematu:
  1. Post #1
    User
    Avatar orlowsky
    O użytkowniku

    Dołączył
    2747 dni temu
    Postów
    94
    Status
    Offline

    Zabójczy numer/Lucky Number Slevin (2006)

    Zabójczy numer/Lucky Number Slevin (2006)720p.BluRay.x264.AC-3 (POLSKI LEKTOR)


    reżyseria: Paul McGuigan
    scenariusz: Jason Smilovic
    premiera: 18 sierpnia 2006 (Polska)(Świat) 2006-02-24
    produkcja: Niemcy, USA
    gatunek: Komedia kryminalna
    (FilmWeb 7.8/10)



    Głównym bohaterem filmu jest młody Slevin, którego w życiu spotykają same porażki. Budynek, w którym mieszkał, uznano za niezdatny do zamieszkiwania, kieszonkowiec ukradł mu dokumenty, a do tego Slevin przyłapał swoją dziewczynę na zdradzie. Chłopak, mając nadzieję na odmianę swojego losu, przeprowadza się do Nowego Jorku i zatrzymuje u znajomego, Nicka Fishera, miłośnika gier hazardowych. Pewnego dnia, akurat wtedy, gdy Slevin flirtuje z piękną sąsiadką, do jego mieszkania puka zawodowy zabójca, który pracuje dla szefa gangu Bossa. Oboje biorą Slevina za Nicka. Boss któremu Nick winny jest duże pieniądze, każe Slevinowi zabić syna Rabina, szefa konkurencyjnego gangu. Na nic zdają się tłumaczenia, że zaszło wielkie nieporozumienie. Sytuacja komplikuje się jeszcze bardziej, gdy do Slevina zgłaszają się ludzie Rabina biorąc go także za Nicka Fishera. Powiązania Slevina z dwoma bossami przestępczymi powodują, że zaczynają się nim interesować najlepsi nowojorscy detektywi.


    General
    Format : Matroska
    File size : 4.36 GiB
    Duration : 1h 49mn
    Overall bit rate : 5 681 Kbps
    Writing library : libebml v0.7.9 + libmatroska v0.8.1
    Video #1
    ID : 1
    Format : AVC
    Format/Info : Advanced Video Codec
    Format profile : High@L5.1
    Format settings, CABAC : Yes
    Format settings, ReFrames : 9 frames
    Muxing mode : Container profile=Unknown@5.1
    Codec ID : V_MPEG4/ISO/AVC
    Duration : 1h 49mn
    Bit rate : 5 120 Kbps
    Nominal bit rate : 5 233 Kbps
    Width : 1 280 pixels
    Height : 536 pixels
    Display aspect ratio : 2.35:1
    Frame rate : 23.976 fps
    Resolution : 24 bits
    Colorimetry : 4:2:0
    Scan type : Progressive
    Bits/(Pixel*Frame) : 0.311
    Stream size : 3.93 GiB (90%)
    Language : English
    Audio #2
    ID : 2
    Format : AC-3
    Format/Info : Audio Coding 3
    Codec ID : A_AC3
    Duration : 1h 49mn
    Bit rate mode : Constant
    Bit rate : 448 Kbps
    Channel(s) : 6 channels
    Channel positions : Front: L C R, Surround: L R, LFE
    Sampling rate : 48.0 KHz
    Stream size : 352 MiB (8%)
    Language : Polish

    Serwer Linków: Filesonic.com
    Ilość plików : 11 x 400 MB + ~138MB(5% dane naprawcze)
    Typ archiwum:RAR


    http://www.filesonic.com/file/168671911/lucky number.part01.rar
    http://www.filesonic.com/file/168860611/lucky number.part02.rar
    http://www.filesonic.com/file/169019381/lucky number.part03.rar
    http://www.filesonic.com/file/169405711/lucky number.part04.rar
    http://www.filesonic.com/file/169675941/lucky number.part05.rar
    http://www.filesonic.com/file/170189721/lucky number.part06.rar
    http://www.filesonic.com/file/170622261/lucky number.part07.rar
    http://www.filesonic.com/file/170930701/lucky number.part08.rar
    http://www.filesonic.com/file/171554871/lucky number.part09.rar
    http://www.filesonic.com/file/171736531/lucky number.part10.rar
    http://www.filesonic.com/file/172069381/lucky number.part11.rar
    http://www.filesonic.com/file/171910811/lucky number.part12.rar
    
    
    
    
    
    

  2. Post #2
    Zwycięzca
    Avatar Marrakech
    O użytkowniku

    Dołączył
    2775 dni temu
    Postów
    6,210
    Status
    Offline
    Zabójczy numer / Lucky Number Slevin (2006) PL.1080p.BD9-ELiTE

    DANE TECHNiCZNE / RELEASE .NFO

    Video............: 8 381 Kbps AVC 
    Resolution.......: 1920x1080 
    Frame Rate.......: 23.976 FPS 
    Audio............: 640 kb/s 6 chnls AC3 English 
    Audio............: 640 kb/s 6 chnls AC3 Polish 
    Subtitles........: English/Polish 
    SA...............: 
    Video Size.......: 7.914 GB 
    Aspect Ratio.....: 16:9 
    Source...........: Blu-Ray POL AVC DTS-HD MA 5.1-HDBT [THX] 
    
    FILMWEB....: http://www.filmweb.pl/Zabojczy.Numer 
    IMDB.......: http://www.imdb.com/title/tt0425210/ 
    
    THiS GROUP WiLL BE LEGEN...DARY! 
    
    
    Waga: 7.9GB
    Zawartość Uploadu: Plik .avc
    Wersja Językowa: PL
    Dane Naprawcze: 2% 
    Hasło: Brak
    
    
    
    
    
    
    ###LiNKi###


    można pobierać zamiennie z serwerów

    DOWNLOAD LiNKS - 1PART=1GB:
    My Upload | No password | single extraction
    http://turbobit.net/600u43y89r0j/slevin.part09.rar.html
    http://turbobit.net/bnyqpbhl4ojm/slevin.part04.rar.html
    http://turbobit.net/umuquuptys8l/slevin.part02.rar.html
    http://turbobit.net/stso49buce7h/slevin.part01.rar.html
    http://turbobit.net/5akc6ycqofmt/slevin.part05.rar.html
    http://turbobit.net/wtq5bg43s9h1/slevin.part08.rar.html
    http://turbobit.net/2dgbw4q7kd2q/slevin.part03.rar.html
    http://turbobit.net/bfhcj0v2k9m8/slevin.part06.rar.html
    http://turbobit.net/q10pv7y0l43t/slevin.part07.rar.html
    
    http://rapidgator.net/file/26297516/slevin.part02.rar.html
    http://rapidgator.net/file/26297293/slevin.part06.rar.html
    http://rapidgator.net/file/26297128/slevin.part03.rar.html
    http://rapidgator.net/file/26296854/slevin.part05.rar.html
    http://rapidgator.net/file/26296470/slevin.part08.rar.html
    http://rapidgator.net/file/26296368/slevin.part07.rar.html
    http://rapidgator.net/file/26296124/slevin.part04.rar.html
    http://rapidgator.net/file/26293257/slevin.part09.rar.html
    http://rapidgator.net/file/26297952/slevin.part01.rar.html
    
    
    
    
    
    

Odpowiedz na ten temat