Carrie (1976) Bluray --- 7,90 GB [Full HD]

3 Najlepsze Ekranizacje Powieści Stephena Kinga [Full HD] - post #1054290

SUBTITLES:
English, Greek, Polish, Spanish

General
Complete name : Carrie (1976) Bluray.mkv
Format : Matroska
File size : 7.90 GiB
Duration : 1h 38mn
Overall bit rate : 11.5 Mbps
Encoded date : UTC 2010-06-14 20:11:51
Writing application : mkvmerge v3.4.0 ('Rapunzel') built on May 15 2010 09:38:20
Writing library : libebml v0.8.0 + libmatroska v0.9.0

Video
ID : 1
Format : AVC
Format/Info : Advanced Video Codec
Format profile : High@L4.1
Format settings, CABAC : Yes
Format settings, ReFrames : 4 frames
Muxing mode : Container profile=Unknown@4.1
Codec ID : V_MPEG4/ISO/AVC
Duration : 1h 38mn
Bit rate : 10.9 Mbps
Width : 1 920 pixels
Height : 1 040 pixels
Display aspect ratio : 16:9
Frame rate : 23.976 fps
Color space : YUV
Chroma subsampling : 4:2:0
Bit depth : 8 bits
Scan type : Progressive
Bits/(Pixel*Frame) : 0.227
Stream size : 7.31 GiB (92%)
Writing library : x264 core 92 r1510 33d382a
Encoding settings : cabac=1 / ref=4 / deblock=1:0:0 / analyse=0x3:0x133 / me=umh / subme=7 / psy=1 / psy_rd=1.50:1.50 / mixed_ref=1 / me_range=16 / chroma_me=1 / trellis=2 / 8x8dct=1 / cqm=0 / deadzone=21,11 / fast_pskip=0 / chroma_qp_offset=-4 / threads=3 / sliced_threads=0 / nr=0 / decimate=0 / interlaced=0 / constrained_intra=0 / bframes=3 / b_pyramid=2 / b_adapt=2 / b_bias=0 / direct=3 / wpredb=1 / wpredp=2 / keyint=250 / keyint_min=25 / scenecut=40 / intra_refresh=0 / rc_lookahead=50 / rc=2pass / mbtree=1 / bitrate=10887 / ratetol=1.0 / qcomp=0.60 / qpmin=10 / qpmax=51 / qpstep=4 / cplxblur=20.0 / qblur=0.5 / ip_ratio=1.40 / aq=1:1.20
Language : English

Audio
ID : 2
Format : AC-3
Format/Info : Audio Coding 3
Mode extension : CM (complete main)
Codec ID : A_AC3
Duration : 1h 38mn
Bit rate mode : Constant
Bit rate : 640 Kbps
Channel(s) : 6 channels
Channel positions : Front: L C R, Side: L R, LFE
Sampling rate : 48.0 KHz
Stream size : 449 MiB (6%)
Title : AC3, 6 channels, 48kHz, 640kbps
Language : English
NO PASSWORD

81x100MB + 1x80,9MB + recovery data
http://rapidshare.com/files/399434438/Carrie.1976.Bluray.1080p.x264-BLaZE.part01.rar
http://rapidshare.com/files/399434461/Carrie.1976.Bluray.1080p.x264-BLaZE.part02.rar
http://rapidshare.com/files/399434505/Carrie.1976.Bluray.1080p.x264-BLaZE.part03.rar
http://rapidshare.com/files/399434439/Carrie.1976.Bluray.1080p.x264-BLaZE.part04.rar
http://rapidshare.com/files/399434450/Carrie.1976.Bluray.1080p.x264-BLaZE.part05.rar
http://rapidshare.com/files/399458200/Carrie.1976.Bluray.1080p.x264-BLaZE.part06.rar
http://rapidshare.com/files/399458629/Carrie.1976.Bluray.1080p.x264-BLaZE.part07.rar
http://rapidshare.com/files/399458539/Carrie.1976.Bluray.1080p.x264-BLaZE.part08.rar
http://rapidshare.com/files/399459142/Carrie.1976.Bluray.1080p.x264-BLaZE.part09.rar
http://rapidshare.com/files/399459249/Carrie.1976.Bluray.1080p.x264-BLaZE.part10.rar
http://rapidshare.com/files/399479150/Carrie.1976.Bluray.1080p.x264-BLaZE.part11.rar
http://rapidshare.com/files/399479406/Carrie.1976.Bluray.1080p.x264-BLaZE.part12.rar
http://rapidshare.com/files/399479466/Carrie.1976.Bluray.1080p.x264-BLaZE.part13.rar
http://rapidshare.com/files/399479838/Carrie.1976.Bluray.1080p.x264-BLaZE.part14.rar
http://rapidshare.com/files/399480312/Carrie.1976.Bluray.1080p.x264-BLaZE.part15.rar
http://rapidshare.com/files/399499270/Carrie.1976.Bluray.1080p.x264-BLaZE.part16.rar
http://rapidshare.com/files/399499297/Carrie.1976.Bluray.1080p.x264-BLaZE.part17.rar
http://rapidshare.com/files/399499954/Carrie.1976.Bluray.1080p.x264-BLaZE.part18.rar
http://rapidshare.com/files/399500023/Carrie.1976.Bluray.1080p.x264-BLaZE.part19.rar
http://rapidshare.com/files/399500099/Carrie.1976.Bluray.1080p.x264-BLaZE.part20.rar
http://rapidshare.com/files/399516413/Carrie.1976.Bluray.1080p.x264-BLaZE.part21.rar
http://rapidshare.com/files/399516549/Carrie.1976.Bluray.1080p.x264-BLaZE.part22.rar
http://rapidshare.com/files/399517334/Carrie.1976.Bluray.1080p.x264-BLaZE.part23.rar
http://rapidshare.com/files/399518027/Carrie.1976.Bluray.1080p.x264-BLaZE.part24.rar
http://rapidshare.com/files/399518544/Carrie.1976.Bluray.1080p.x264-BLaZE.part25.rar
http://rapidshare.com/files/399536053/Carrie.1976.Bluray.1080p.x264-BLaZE.part26.rar
http://rapidshare.com/files/399536458/Carrie.1976.Bluray.1080p.x264-BLaZE.part27.rar
http://rapidshare.com/files/399537122/Carrie.1976.Bluray.1080p.x264-BLaZE.part28.rar
http://rapidshare.com/files/399537471/Carrie.1976.Bluray.1080p.x264-BLaZE.part29.rar
http://rapidshare.com/files/399538699/Carrie.1976.Bluray.1080p.x264-BLaZE.part30.rar
http://rapidshare.com/files/399560803/Carrie.1976.Bluray.1080p.x264-BLaZE.part31.rar
http://rapidshare.com/files/399560919/Carrie.1976.Bluray.1080p.x264-BLaZE.part32.rar
http://rapidshare.com/files/399562317/Carrie.1976.Bluray.1080p.x264-BLaZE.part33.rar
http://rapidshare.com/files/399563043/Carrie.1976.Bluray.1080p.x264-BLaZE.part34.rar
http://rapidshare.com/files/399564672/Carrie.1976.Bluray.1080p.x264-BLaZE.part35.rar
http://rapidshare.com/files/399583387/Carrie.1976.Bluray.1080p.x264-BLaZE.part36.rar
http://rapidshare.com/files/399585440/Carrie.1976.Bluray.1080p.x264-BLaZE.part37.rar
http://rapidshare.com/files/399586024/Carrie.1976.Bluray.1080p.x264-BLaZE.part38.rar
http://rapidshare.com/files/399589162/Carrie.1976.Bluray.1080p.x264-BLaZE.part39.rar
http://rapidshare.com/files/399610144/Carrie.1976.Bluray.1080p.x264-BLaZE.part40.rar
http://rapidshare.com/files/399612676/Carrie.1976.Bluray.1080p.x264-BLaZE.part41.rar
http://rapidshare.com/files/399615136/Carrie.1976.Bluray.1080p.x264-BLaZE.part42.rar
http://rapidshare.com/files/399615612/Carrie.1976.Bluray.1080p.x264-BLaZE.part43.rar
http://rapidshare.com/files/399618088/Carrie.1976.Bluray.1080p.x264-BLaZE.part44.rar
http://rapidshare.com/files/399638079/Carrie.1976.Bluray.1080p.x264-BLaZE.part45.rar
http://rapidshare.com/files/399643023/Carrie.1976.Bluray.1080p.x264-BLaZE.part46.rar
http://rapidshare.com/files/399643991/Carrie.1976.Bluray.1080p.x264-BLaZE.part47.rar
http://rapidshare.com/files/399644112/Carrie.1976.Bluray.1080p.x264-BLaZE.part48.rar
http://rapidshare.com/files/399645654/Carrie.1976.Bluray.1080p.x264-BLaZE.part49.rar
http://rapidshare.com/files/399668928/Carrie.1976.Bluray.1080p.x264-BLaZE.part50.rar
http://rapidshare.com/files/399675819/Carrie.1976.Bluray.1080p.x264-BLaZE.part51.rar
http://rapidshare.com/files/399676592/Carrie.1976.Bluray.1080p.x264-BLaZE.part52.rar
http://rapidshare.com/files/399676797/Carrie.1976.Bluray.1080p.x264-BLaZE.part53.rar
http://rapidshare.com/files/399677779/Carrie.1976.Bluray.1080p.x264-BLaZE.part54.rar
http://rapidshare.com/files/399701765/Carrie.1976.Bluray.1080p.x264-BLaZE.part55.rar
http://rapidshare.com/files/399707608/Carrie.1976.Bluray.1080p.x264-BLaZE.part56.rar
http://rapidshare.com/files/399708653/Carrie.1976.Bluray.1080p.x264-BLaZE.part57.rar
http://rapidshare.com/files/399709033/Carrie.1976.Bluray.1080p.x264-BLaZE.part58.rar
http://rapidshare.com/files/399709847/Carrie.1976.Bluray.1080p.x264-BLaZE.part59.rar
http://rapidshare.com/files/399733185/Carrie.1976.Bluray.1080p.x264-BLaZE.part60.rar
http://rapidshare.com/files/399740120/Carrie.1976.Bluray.1080p.x264-BLaZE.part61.rar
http://rapidshare.com/files/399741119/Carrie.1976.Bluray.1080p.x264-BLaZE.part62.rar
http://rapidshare.com/files/399741487/Carrie.1976.Bluray.1080p.x264-BLaZE.part63.rar
http://rapidshare.com/files/399741998/Carrie.1976.Bluray.1080p.x264-BLaZE.part64.rar
http://rapidshare.com/files/399764072/Carrie.1976.Bluray.1080p.x264-BLaZE.part65.rar
http://rapidshare.com/files/399771736/Carrie.1976.Bluray.1080p.x264-BLaZE.part66.rar
http://rapidshare.com/files/399771979/Carrie.1976.Bluray.1080p.x264-BLaZE.part68.rar
http://rapidshare.com/files/399772049/Carrie.1976.Bluray.1080p.x264-BLaZE.part67.rar
http://rapidshare.com/files/399774722/Carrie.1976.Bluray.1080p.x264-BLaZE.part69.rar
http://rapidshare.com/files/399793772/Carrie.1976.Bluray.1080p.x264-BLaZE.part70.rar
http://rapidshare.com/files/399799864/Carrie.1976.Bluray.1080p.x264-BLaZE.part71.rar
http://rapidshare.com/files/399800269/Carrie.1976.Bluray.1080p.x264-BLaZE.part72.rar
http://rapidshare.com/files/399800892/Carrie.1976.Bluray.1080p.x264-BLaZE.part73.rar
http://rapidshare.com/files/399802536/Carrie.1976.Bluray.1080p.x264-BLaZE.part74.rar
http://rapidshare.com/files/399820264/Carrie.1976.Bluray.1080p.x264-BLaZE.part75.rar
http://rapidshare.com/files/399824992/Carrie.1976.Bluray.1080p.x264-BLaZE.part76.rar
http://rapidshare.com/files/399825173/Carrie.1976.Bluray.1080p.x264-BLaZE.part77.rar
http://rapidshare.com/files/399825356/Carrie.1976.Bluray.1080p.x264-BLaZE.part78.rar
http://rapidshare.com/files/399827234/Carrie.1976.Bluray.1080p.x264-BLaZE.part79.rar
http://rapidshare.com/files/399838923/Carrie.1976.Bluray.1080p.x264-BLaZE.part80.rar
http://rapidshare.com/files/399844058/Carrie.1976.Bluray.1080p.x264-BLaZE.part81.rar
http://rapidshare.com/files/399844253/Carrie.1976.Bluray.1080p.x264-BLaZE.part82.rar




The Shining (1980) Bluray [Full HD] --- 7,90 GB

3 Najlepsze Ekranizacje Powieści Stephena Kinga [Full HD] - post #1054290

Subtitles:
English, Finnish, French, Hungarian, Italian, Polish (txt), Spanish

General
Complete name : The Shining (1980) Bluray.mkv
Format : Matroska
File size : 7.90 GiB
Duration : 2h 23mn
Overall bit rate : 7 872 Kbps
Encoded date : UTC 2010-06-21 21:02:48
Writing application : mkvmerge v3.3.0 ('Language') built on Mar 24 2010 14:59:24
Writing library : libebml v0.8.0 + libmatroska v0.9.0

Video
ID : 1
Format : AVC
Format/Info : Advanced Video Codec
Format profile : High@L4.1
Format settings, CABAC : Yes
Format settings, ReFrames : 4 frames
Muxing mode : Container profile=Unknown@4.1
Codec ID : V_MPEG4/ISO/AVC
Duration : 2h 23mn
Bit rate : 7 075 Kbps
Nominal bit rate : 7 234 Kbps
Width : 1 920 pixels
Height : 1 080 pixels
Display aspect ratio : 16:9
Frame rate : 23.976 fps
Resolution : 8 bits
Colorimetry : 4:2:0
Scan type : Progressive
Bits/(Pixel*Frame) : 0.142
Stream size : 7.10 GiB (90%)
Writing library : x264 core 92 r1510 33d382a
Encoding settings : cabac=1 / ref=4 / deblock=1:0:0 / analyse=0x3:0x133 / me=umh / subme=7 / psy=1

/ psy_rd=1.00:0.50 / mixed_ref=1 / me_range=16 / chroma_me=1 / trellis=2 / 8x8dct=1 / cqm=0 /

deadzone=21,11 / fast_pskip=0 / chroma_qp_offset=-4 / threads=3 / sliced_threads=0 / nr=0 / decimate=0 /

interlaced=0 / constrained_intra=0 / bframes=3 / b_pyramid=2 / b_adapt=2 / b_bias=0 / direct=3 / wpredb=1

/ wpredp=2 / keyint=250 / keyint_min=25 / scenecut=40 / intra_refresh=0 / rc_lookahead=50 / rc=2pass /

mbtree=1 / bitrate=7234 / ratetol=1.0 / qcomp=0.60 / qpmin=10 / qpmax=51 / qpstep=4 / cplxblur=20.0 /

qblur=0.5 / ip_ratio=1.40 / aq=1:1.20

Audio
ID : 2
Format : AC-3
Format/Info : Audio Coding 3
Codec ID : A_AC3
Duration : 2h 23mn
Bit rate mode : Constant
Bit rate : 640 Kbps
Channel(s) : 6 channels
Channel positions : Front: L C R, Side: L R, LFE
Sampling rate : 48.0 KHz
Stream size : 658 MiB (8%)
NO PASSWORD

81x100MB + 1x94,2MB + recovery data
http://rapidshare.com/files/402579671/The.Shining.1980.Bluray.1080p.x264-BLaZE.part82.rar.html
http://rapidshare.com/files/402577902/The.Shining.1980.Bluray.1080p.x264-BLaZE.part81.rar.html
http://rapidshare.com/files/402563376/The.Shining.1980.Bluray.1080p.x264-BLaZE.part80.rar.html
http://rapidshare.com/files/402562311/The.Shining.1980.Bluray.1080p.x264-BLaZE.part79.rar.html
http://rapidshare.com/files/402562073/The.Shining.1980.Bluray.1080p.x264-BLaZE.part78.rar.html
http://rapidshare.com/files/402559727/The.Shining.1980.Bluray.1080p.x264-BLaZE.part77.rar.html
http://rapidshare.com/files/402558643/The.Shining.1980.Bluray.1080p.x264-BLaZE.part76.rar.html
http://rapidshare.com/files/402544929/The.Shining.1980.Bluray.1080p.x264-BLaZE.part75.rar.html
http://rapidshare.com/files/402544051/The.Shining.1980.Bluray.1080p.x264-BLaZE.part74.rar.html
http://rapidshare.com/files/402543881/The.Shining.1980.Bluray.1080p.x264-BLaZE.part73.rar.html
http://rapidshare.com/files/402541774/The.Shining.1980.Bluray.1080p.x264-BLaZE.part72.rar.html
http://rapidshare.com/files/402540853/The.Shining.1980.Bluray.1080p.x264-BLaZE.part71.rar.html
http://rapidshare.com/files/402527700/The.Shining.1980.Bluray.1080p.x264-BLaZE.part70.rar.html
http://rapidshare.com/files/402526473/The.Shining.1980.Bluray.1080p.x264-BLaZE.part69.rar.html
http://rapidshare.com/files/402526173/The.Shining.1980.Bluray.1080p.x264-BLaZE.part68.rar.html
http://rapidshare.com/files/402523912/The.Shining.1980.Bluray.1080p.x264-BLaZE.part67.rar.html
http://rapidshare.com/files/402523704/The.Shining.1980.Bluray.1080p.x264-BLaZE.part66.rar.html
http://rapidshare.com/files/402508604/The.Shining.1980.Bluray.1080p.x264-BLaZE.part65.rar.html
http://rapidshare.com/files/402507729/The.Shining.1980.Bluray.1080p.x264-BLaZE.part64.rar.html
http://rapidshare.com/files/402507213/The.Shining.1980.Bluray.1080p.x264-BLaZE.part63.rar.html
http://rapidshare.com/files/402506218/The.Shining.1980.Bluray.1080p.x264-BLaZE.part62.rar.html
http://rapidshare.com/files/402506229/The.Shining.1980.Bluray.1080p.x264-BLaZE.part61.rar.html
http://rapidshare.com/files/402490954/The.Shining.1980.Bluray.1080p.x264-BLaZE.part60.rar.html
http://rapidshare.com/files/402490453/The.Shining.1980.Bluray.1080p.x264-BLaZE.part59.rar.html
http://rapidshare.com/files/402490329/The.Shining.1980.Bluray.1080p.x264-BLaZE.part58.rar.html
http://rapidshare.com/files/402489166/The.Shining.1980.Bluray.1080p.x264-BLaZE.part57.rar.html
http://rapidshare.com/files/402489046/The.Shining.1980.Bluray.1080p.x264-BLaZE.part56.rar.html
http://rapidshare.com/files/402470062/The.Shining.1980.Bluray.1080p.x264-BLaZE.part55.rar.html
http://rapidshare.com/files/402469780/The.Shining.1980.Bluray.1080p.x264-BLaZE.part54.rar.html
http://rapidshare.com/files/402469724/The.Shining.1980.Bluray.1080p.x264-BLaZE.part53.rar.html
http://rapidshare.com/files/402468567/The.Shining.1980.Bluray.1080p.x264-BLaZE.part52.rar.html
http://rapidshare.com/files/402467997/The.Shining.1980.Bluray.1080p.x264-BLaZE.part51.rar.html
http://rapidshare.com/files/402445387/The.Shining.1980.Bluray.1080p.x264-BLaZE.part50.rar.html
http://rapidshare.com/files/402444861/The.Shining.1980.Bluray.1080p.x264-BLaZE.part49.rar.html
http://rapidshare.com/files/402444728/The.Shining.1980.Bluray.1080p.x264-BLaZE.part48.rar.html
http://rapidshare.com/files/402443934/The.Shining.1980.Bluray.1080p.x264-BLaZE.part47.rar.html
http://rapidshare.com/files/402443649/The.Shining.1980.Bluray.1080p.x264-BLaZE.part46.rar.html
http://rapidshare.com/files/402414947/The.Shining.1980.Bluray.1080p.x264-BLaZE.part45.rar.html
http://rapidshare.com/files/402414940/The.Shining.1980.Bluray.1080p.x264-BLaZE.part44.rar.html
http://rapidshare.com/files/402414162/The.Shining.1980.Bluray.1080p.x264-BLaZE.part43.rar.html
http://rapidshare.com/files/402414036/The.Shining.1980.Bluray.1080p.x264-BLaZE.part42.rar.html
http://rapidshare.com/files/402413648/The.Shining.1980.Bluray.1080p.x264-BLaZE.part41.rar.html
http://rapidshare.com/files/402384314/The.Shining.1980.Bluray.1080p.x264-BLaZE.part40.rar.html
http://rapidshare.com/files/402384090/The.Shining.1980.Bluray.1080p.x264-BLaZE.part39.rar.html
http://rapidshare.com/files/402383395/The.Shining.1980.Bluray.1080p.x264-BLaZE.part38.rar.html
http://rapidshare.com/files/402383289/The.Shining.1980.Bluray.1080p.x264-BLaZE.part37.rar.html
http://rapidshare.com/files/402382740/The.Shining.1980.Bluray.1080p.x264-BLaZE.part36.rar.html
http://rapidshare.com/files/402357931/The.Shining.1980.Bluray.1080p.x264-BLaZE.part35.rar.html
http://rapidshare.com/files/402357040/The.Shining.1980.Bluray.1080p.x264-BLaZE.part34.rar.html
http://rapidshare.com/files/402356945/The.Shining.1980.Bluray.1080p.x264-BLaZE.part33.rar.html
http://rapidshare.com/files/402356579/The.Shining.1980.Bluray.1080p.x264-BLaZE.part32.rar.html
http://rapidshare.com/files/402355707/The.Shining.1980.Bluray.1080p.x264-BLaZE.part31.rar.html
http://rapidshare.com/files/402328345/The.Shining.1980.Bluray.1080p.x264-BLaZE.part30.rar.html
http://rapidshare.com/files/402326293/The.Shining.1980.Bluray.1080p.x264-BLaZE.part29.rar.html
http://rapidshare.com/files/402326282/The.Shining.1980.Bluray.1080p.x264-BLaZE.part28.rar.html
http://rapidshare.com/files/402325909/The.Shining.1980.Bluray.1080p.x264-BLaZE.part27.rar.html
http://rapidshare.com/files/402324034/The.Shining.1980.Bluray.1080p.x264-BLaZE.part26.rar.html
http://rapidshare.com/files/402300677/The.Shining.1980.Bluray.1080p.x264-BLaZE.part25.rar.html
http://rapidshare.com/files/402300419/The.Shining.1980.Bluray.1080p.x264-BLaZE.part24.rar.html
http://rapidshare.com/files/402300248/The.Shining.1980.Bluray.1080p.x264-BLaZE.part23.rar.html
http://rapidshare.com/files/402299591/The.Shining.1980.Bluray.1080p.x264-BLaZE.part22.rar.html
http://rapidshare.com/files/402298389/The.Shining.1980.Bluray.1080p.x264-BLaZE.part21.rar.html
http://rapidshare.com/files/402275726/The.Shining.1980.Bluray.1080p.x264-BLaZE.part20.rar.html
http://rapidshare.com/files/402275611/The.Shining.1980.Bluray.1080p.x264-BLaZE.part19.rar.html
http://rapidshare.com/files/402274883/The.Shining.1980.Bluray.1080p.x264-BLaZE.part18.rar.html
http://rapidshare.com/files/402274572/The.Shining.1980.Bluray.1080p.x264-BLaZE.part17.rar.html
http://rapidshare.com/files/402273493/The.Shining.1980.Bluray.1080p.x264-BLaZE.part16.rar.html
http://rapidshare.com/files/402250950/The.Shining.1980.Bluray.1080p.x264-BLaZE.part15.rar.html
http://rapidshare.com/files/402250718/The.Shining.1980.Bluray.1080p.x264-BLaZE.part14.rar.html
http://rapidshare.com/files/402250312/The.Shining.1980.Bluray.1080p.x264-BLaZE.part13.rar.html
http://rapidshare.com/files/402250320/The.Shining.1980.Bluray.1080p.x264-BLaZE.part12.rar.html
http://rapidshare.com/files/402249833/The.Shining.1980.Bluray.1080p.x264-BLaZE.part11.rar.html
http://rapidshare.com/files/402230389/The.Shining.1980.Bluray.1080p.x264-BLaZE.part10.rar.html
http://rapidshare.com/files/402229658/The.Shining.1980.Bluray.1080p.x264-BLaZE.part09.rar.html
http://rapidshare.com/files/402229555/The.Shining.1980.Bluray.1080p.x264-BLaZE.part08.rar.html
http://rapidshare.com/files/402229443/The.Shining.1980.Bluray.1080p.x264-BLaZE.part07.rar.html
http://rapidshare.com/files/402228929/The.Shining.1980.Bluray.1080p.x264-BLaZE.part06.rar.html
http://rapidshare.com/files/402211080/The.Shining.1980.Bluray.1080p.x264-BLaZE.part05.rar.html
http://rapidshare.com/files/402211109/The.Shining.1980.Bluray.1080p.x264-BLaZE.part04.rar.html
http://rapidshare.com/files/402211067/The.Shining.1980.Bluray.1080p.x264-BLaZE.part03.rar.html
http://rapidshare.com/files/402211088/The.Shining.1980.Bluray.1080p.x264-BLaZE.part02.rar.html
http://rapidshare.com/files/402211108/The.Shining.1980.Bluray.1080p.x264-BLaZE.part01.rar.html




Misery (1990) Bluray [Full HD] --- 7,91 GB

3 Najlepsze Ekranizacje Powieści Stephena Kinga [Full HD] - post #1054290

SUBTITLES:
Czech, English, Greek, Polish, Spanish

General
Complete name : Misery (1990) Bluray.mkv
Format : Matroska
File size : 7.91 GiB
Duration : 1h 47mn
Overall bit rate : 10.6 Mbps
Encoded date : UTC 2010-06-29 00:39:46
Writing application : mkvmerge v3.3.0 ('Language') built on Mar 24 2010 14:59:24
Writing library : libebml v0.8.0 + libmatroska v0.9.0

Video
ID : 1
Format : AVC
Format/Info : Advanced Video Codec
Format profile : High@L4.1
Format settings, CABAC : Yes
Format settings, ReFrames : 4 frames
Muxing mode : Container profile=Unknown@4.1
Codec ID : V_MPEG4/ISO/AVC
Duration : 1h 47mn
Bit rate : 9 709 Kbps
Nominal bit rate : 9 921 Kbps
Width : 1 920 pixels
Height : 1 040 pixels
Display aspect ratio : 16:9
Frame rate : 23.976 fps
Resolution : 8 bits
Colorimetry : 4:2:0
Scan type : Progressive
Bits/(Pixel*Frame) : 0.203
Stream size : 7.28 GiB (92%)
Writing library : x264 core 92 r1510 33d382a
Encoding settings : cabac=1 / ref=4 / deblock=1:-1:-1 / analyse=0x3:0x133 / me=umh / subme=7 / psy=1 / psy_rd=1.00:0.50 / mixed_ref=1 / me_range=16 / chroma_me=1 / trellis=2 / 8x8dct=1 / cqm=0 / deadzone=21,11 / fast_pskip=0 / chroma_qp_offset=-4 / threads=3 / sliced_threads=0 / nr=0 / decimate=0 / interlaced=0 / constrained_intra=0 / bframes=3 / b_pyramid=2 / b_adapt=2 / b_bias=0 / direct=3 / wpredb=1 / wpredp=2 / keyint=250 / keyint_min=25 / scenecut=40 / intra_refresh=0 / rc_lookahead=50 / rc=2pass / mbtree=1 / bitrate=9921 / ratetol=1.0 / qcomp=0.60 / qpmin=10 / qpmax=51 / qpstep=4 / cplxblur=20.0 / qblur=0.5 / ip_ratio=1.40 / aq=1:1.00

Audio
ID : 2
Format : AC-3
Format/Info : Audio Coding 3
Codec ID : A_AC3
Duration : 1h 47mn
Bit rate mode : Constant
Bit rate : 640 Kbps
Channel(s) : 6 channels
Channel positions : Front: L C R, Side: L R, LFE
Sampling rate : 48.0 KHz
Stream size : 492 MiB (6%)
NO PASSWORD


82x100MB + 1x6,31MB + recovery data
http://rapidshare.com/files/404447759/Misery.1990.Bluray.1080p.x264-BLaZE.part83.rar.html
http://rapidshare.com/files/404447282/Misery.1990.Bluray.1080p.x264-BLaZE.part82.rar.html
http://rapidshare.com/files/404444163/Misery.1990.Bluray.1080p.x264-BLaZE.part81.rar.html
http://rapidshare.com/files/404435467/Misery.1990.Bluray.1080p.x264-BLaZE.part80.rar.html
http://rapidshare.com/files/404433191/Misery.1990.Bluray.1080p.x264-BLaZE.part79.rar.html
http://rapidshare.com/files/404432832/Misery.1990.Bluray.1080p.x264-BLaZE.part78.rar.html
http://rapidshare.com/files/404432390/Misery.1990.Bluray.1080p.x264-BLaZE.part77.rar.html
http://rapidshare.com/files/404430067/Misery.1990.Bluray.1080p.x264-BLaZE.part76.rar.html
http://rapidshare.com/files/404423408/Misery.1990.Bluray.1080p.x264-BLaZE.part75.rar.html
http://rapidshare.com/files/404421685/Misery.1990.Bluray.1080p.x264-BLaZE.part74.rar.html
http://rapidshare.com/files/404421371/Misery.1990.Bluray.1080p.x264-BLaZE.part73.rar.html
http://rapidshare.com/files/404421133/Misery.1990.Bluray.1080p.x264-BLaZE.part72.rar.html
http://rapidshare.com/files/404418329/Misery.1990.Bluray.1080p.x264-BLaZE.part71.rar.html
http://rapidshare.com/files/404412570/Misery.1990.Bluray.1080p.x264-BLaZE.part70.rar.html
http://rapidshare.com/files/404411463/Misery.1990.Bluray.1080p.x264-BLaZE.part69.rar.html
http://rapidshare.com/files/404411290/Misery.1990.Bluray.1080p.x264-BLaZE.part68.rar.html
http://rapidshare.com/files/404411061/Misery.1990.Bluray.1080p.x264-BLaZE.part67.rar.html
http://rapidshare.com/files/404408698/Misery.1990.Bluray.1080p.x264-BLaZE.part66.rar.html
http://rapidshare.com/files/404402791/Misery.1990.Bluray.1080p.x264-BLaZE.part65.rar.html
http://rapidshare.com/files/404402253/Misery.1990.Bluray.1080p.x264-BLaZE.part64.rar.html
http://rapidshare.com/files/404402081/Misery.1990.Bluray.1080p.x264-BLaZE.part63.rar.html
http://rapidshare.com/files/404401652/Misery.1990.Bluray.1080p.x264-BLaZE.part62.rar.html
http://rapidshare.com/files/404399335/Misery.1990.Bluray.1080p.x264-BLaZE.part61.rar.html
http://rapidshare.com/files/404393789/Misery.1990.Bluray.1080p.x264-BLaZE.part60.rar.html
http://rapidshare.com/files/404392760/Misery.1990.Bluray.1080p.x264-BLaZE.part59.rar.html
http://rapidshare.com/files/404392508/Misery.1990.Bluray.1080p.x264-BLaZE.part58.rar.html
http://rapidshare.com/files/404392133/Misery.1990.Bluray.1080p.x264-BLaZE.part57.rar.html
http://rapidshare.com/files/404389770/Misery.1990.Bluray.1080p.x264-BLaZE.part56.rar.html
http://rapidshare.com/files/404381143/Misery.1990.Bluray.1080p.x264-BLaZE.part55.rar.html
http://rapidshare.com/files/404379869/Misery.1990.Bluray.1080p.x264-BLaZE.part54.rar.html
http://rapidshare.com/files/404379613/Misery.1990.Bluray.1080p.x264-BLaZE.part53.rar.html
http://rapidshare.com/files/404378032/Misery.1990.Bluray.1080p.x264-BLaZE.part52.rar.html
http://rapidshare.com/files/404375960/Misery.1990.Bluray.1080p.x264-BLaZE.part51.rar.html
http://rapidshare.com/files/404366160/Misery.1990.Bluray.1080p.x264-BLaZE.part50.rar.html
http://rapidshare.com/files/404364382/Misery.1990.Bluray.1080p.x264-BLaZE.part49.rar.html
http://rapidshare.com/files/404363572/Misery.1990.Bluray.1080p.x264-BLaZE.part48.rar.html
http://rapidshare.com/files/404361630/Misery.1990.Bluray.1080p.x264-BLaZE.part47.rar.html
http://rapidshare.com/files/404359490/Misery.1990.Bluray.1080p.x264-BLaZE.part46.rar.html
http://rapidshare.com/files/404348852/Misery.1990.Bluray.1080p.x264-BLaZE.part45.rar.html
http://rapidshare.com/files/404346812/Misery.1990.Bluray.1080p.x264-BLaZE.part44.rar.html
http://rapidshare.com/files/404346162/Misery.1990.Bluray.1080p.x264-BLaZE.part43.rar.html
http://rapidshare.com/files/404344255/Misery.1990.Bluray.1080p.x264-BLaZE.part42.rar.html
http://rapidshare.com/files/404341833/Misery.1990.Bluray.1080p.x264-BLaZE.part41.rar.html
http://rapidshare.com/files/404330216/Misery.1990.Bluray.1080p.x264-BLaZE.part40.rar.html
http://rapidshare.com/files/404328854/Misery.1990.Bluray.1080p.x264-BLaZE.part39.rar.html
http://rapidshare.com/files/404327051/Misery.1990.Bluray.1080p.x264-BLaZE.part38.rar.html
http://rapidshare.com/files/404325520/Misery.1990.Bluray.1080p.x264-BLaZE.part37.rar.html
http://rapidshare.com/files/404322838/Misery.1990.Bluray.1080p.x264-BLaZE.part36.rar.html
http://rapidshare.com/files/404310298/Misery.1990.Bluray.1080p.x264-BLaZE.part35.rar.html
http://rapidshare.com/files/404310052/Misery.1990.Bluray.1080p.x264-BLaZE.part34.rar.html
http://rapidshare.com/files/404307063/Misery.1990.Bluray.1080p.x264-BLaZE.part33.rar.html
http://rapidshare.com/files/404306392/Misery.1990.Bluray.1080p.x264-BLaZE.part32.rar.html
http://rapidshare.com/files/404302898/Misery.1990.Bluray.1080p.x264-BLaZE.part31.rar.html
http://rapidshare.com/files/404290849/Misery.1990.Bluray.1080p.x264-BLaZE.part30.rar.html
http://rapidshare.com/files/404290576/Misery.1990.Bluray.1080p.x264-BLaZE.part29.rar.html
http://rapidshare.com/files/404288044/Misery.1990.Bluray.1080p.x264-BLaZE.part28.rar.html
http://rapidshare.com/files/404287120/Misery.1990.Bluray.1080p.x264-BLaZE.part27.rar.html
http://rapidshare.com/files/404283877/Misery.1990.Bluray.1080p.x264-BLaZE.part26.rar.html
http://rapidshare.com/files/404271773/Misery.1990.Bluray.1080p.x264-BLaZE.part25.rar.html
http://rapidshare.com/files/404271331/Misery.1990.Bluray.1080p.x264-BLaZE.part24.rar.html
http://rapidshare.com/files/404269372/Misery.1990.Bluray.1080p.x264-BLaZE.part23.rar.html
http://rapidshare.com/files/404268340/Misery.1990.Bluray.1080p.x264-BLaZE.part22.rar.html
http://rapidshare.com/files/404264943/Misery.1990.Bluray.1080p.x264-BLaZE.part21.rar.html
http://rapidshare.com/files/404249101/Misery.1990.Bluray.1080p.x264-BLaZE.part20.rar.html
http://rapidshare.com/files/404248539/Misery.1990.Bluray.1080p.x264-BLaZE.part19.rar.html
http://rapidshare.com/files/404247633/Misery.1990.Bluray.1080p.x264-BLaZE.part18.rar.html
http://rapidshare.com/files/404246705/Misery.1990.Bluray.1080p.x264-BLaZE.part17.rar.html
http://rapidshare.com/files/404243414/Misery.1990.Bluray.1080p.x264-BLaZE.part16.rar.html
http://rapidshare.com/files/404229736/Misery.1990.Bluray.1080p.x264-BLaZE.part15.rar.html
http://rapidshare.com/files/404229548/Misery.1990.Bluray.1080p.x264-BLaZE.part14.rar.html
http://rapidshare.com/files/404228153/Misery.1990.Bluray.1080p.x264-BLaZE.part13.rar.html
http://rapidshare.com/files/404227632/Misery.1990.Bluray.1080p.x264-BLaZE.part12.rar.html
http://rapidshare.com/files/404225260/Misery.1990.Bluray.1080p.x264-BLaZE.part11.rar.html
http://rapidshare.com/files/404212865/Misery.1990.Bluray.1080p.x264-BLaZE.part10.rar.html
http://rapidshare.com/files/404212553/Misery.1990.Bluray.1080p.x264-BLaZE.part09.rar.html
http://rapidshare.com/files/404212498/Misery.1990.Bluray.1080p.x264-BLaZE.part08.rar.html
http://rapidshare.com/files/404210389/Misery.1990.Bluray.1080p.x264-BLaZE.part07.rar.html
http://rapidshare.com/files/404210331/Misery.1990.Bluray.1080p.x264-BLaZE.part06.rar.html
http://rapidshare.com/files/404198518/Misery.1990.Bluray.1080p.x264-BLaZE.part05.rar.html
http://rapidshare.com/files/404198330/Misery.1990.Bluray.1080p.x264-BLaZE.part04.rar.html
http://rapidshare.com/files/404198339/Misery.1990.Bluray.1080p.x264-BLaZE.part03.rar.html
http://rapidshare.com/files/404198329/Misery.1990.Bluray.1080p.x264-BLaZE.part02.rar.html
http://rapidshare.com/files/404198335/Misery.1990.Bluray.1080p.x264-BLaZE.part01.rar.html